<?xml version="1.0" standalone="no"?>
<!DOCTYPE svg PUBLIC "-//W3C//DTD SVG 1.1//EN" "http://www.w3.org/Graphics/SVG/1.1/DTD/svg11.dtd" >
<svg xmlns="http://www.w3.org/2000/svg">
<metadata>Generated by IcoMoon</metadata>
<defs>
<font id="igrowl-vicons" horiz-adv-x="512">
<font-face units-per-em="512" ascent="480" descent="-32" />
<missing-glyph horiz-adv-x="512" />
<glyph unicode="&#x20;" d="" horiz-adv-x="256" />
<glyph unicode="&#xe600;" d="M371.498 328.832c-16.64 16.661-43.69 16.661-60.33 0l-55.168-55.168-55.168 55.168c-16.64 16.661-43.69 16.661-60.331 0-16.662-16.661-16.662-43.67 0-60.33l55.147-55.168-55.147-55.168c-16.662-16.661-16.662-43.669 0-60.331 8.32-8.341 19.243-12.502 30.166-12.502s21.845 4.16 30.166 12.502l55.168 55.168 55.168-55.168c8.32-8.341 19.243-12.502 30.166-12.502s21.846 4.16 30.166 12.502c16.661 16.661 16.661 43.669 0 60.331l-55.147 55.168 55.147 55.168c16.661 16.661 16.661 43.669 0 60.33z" />
<glyph unicode="&#xe601;" d="M398.222 426.667c0 15.709-12.736 28.445-28.445 28.445h-227.555c-15.709 0-28.445-12.736-28.445-28.445l-113.778-199.111v-199.111c0-15.709 12.736-28.445 28.445-28.445h455.111c15.709 0 28.445 12.736 28.445 28.445v199.111l-113.778 199.111zM163.056 398.222h185.889l81.278-142.222h-103.111c-7.861 0-14.222-6.368-14.222-14.222v-11.687c0-29.694-21.652-56.264-51.208-59.147-33.903-3.305-62.57 23.369-62.57 56.612v14.222c0 7.854-6.361 14.222-14.222 14.222h-103.111l81.278 142.222zM455.111 71.111c0-7.854-6.361-14.222-14.222-14.222h-369.778c-7.861 0-14.222 6.368-14.222 14.222v128h89.056c12.653-49.049 57.056-85.334 110.055-85.334s97.403 36.284 110.055 85.334h89.056v-128z" />
<glyph unicode="&#xe602;" d="M455.142 170.667c-15.723 0-28.445-12.736-28.445-28.445v-71.111c0-7.854-6.375-14.222-14.222-14.222h-312.944c-7.862 0-14.222 6.368-14.222 14.222v312.889c0 7.854 6.361 14.222 14.222 14.222h71.111c15.722 0 28.459 12.736 28.459 28.444s-12.737 28.445-28.459 28.445h-113.778c-15.722 0-28.459-12.736-28.459-28.445v-398.222c0-15.709 12.736-28.445 28.459-28.445h398.277c15.723 0 28.445 12.736 28.445 28.445v113.778c0 15.709-12.722 28.445-28.445 28.445zM374.587 386.771l40.653-40.66-169.194-175.445h-46.944v46.938l175.486 169.166zM374.947 455.111c-7.278 0-14.53-2.77-20.086-8.313l-212.664-205.020v-128h128.028l205.056 212.625c11.084 11.084 11.084 29.049 0 40.132l-80.278 80.264c-5.528 5.542-12.805 8.313-20.056 8.313v0z" />
<glyph unicode="&#xe603;" d="M256 455.111c-125.666 0-227.555-101.882-227.555-227.555s101.889-227.555 227.555-227.555 227.555 101.882 227.555 227.555-101.889 227.555-227.555 227.555zM256 56.889c-94.111 0-170.667 76.563-170.667 170.667s76.555 170.666 170.667 170.666 170.667-76.563 170.667-170.666-76.555-170.667-170.667-170.667zM313.166 227.556h-42.944c-7.861 0-14.222 6.368-14.222 14.222v42.951c0 15.548-12.612 28.16-28.167 28.16h-0.555c-15.555 0-28.167-12.612-28.167-28.16v-85.902c0-15.548 12.612-28.161 28.167-28.161h85.889c15.555 0 28.167 12.611 28.167 28.161v0.57c0 15.548-12.611 28.159-28.167 28.159z" />
<glyph unicode="&#xe604;" d="M312.781 284.42l-113.195-0.055c-0.18 0-0.347 0.055-0.542 0.055h-45.621l94.354 94.41c10.856 10.857 10.856 28.448 0 39.298l-0.389 0.403c-10.844 10.85-28.434 10.85-39.278 0l-139.808-139.899c-0.986-0.75-1.985-1.459-2.874-2.353l-0.153-0.146c-0.042-0.034-0.070-0.070-0.097-0.104l-0.152-0.146c-0.958-0.958-1.736-2.026-2.514-3.090-0.25-0.326-0.556-0.605-0.778-0.944-3.234-4.741-4.858-10.239-4.831-15.751 0-0.049-0.014-0.084-0.014-0.132 0-0.042 0.014-0.082 0.014-0.125-0.028-5.512 1.596-11.010 4.831-15.752 0.222-0.333 0.514-0.611 0.75-0.93 0.806-1.061 1.583-2.137 2.541-3.102l0.152-0.153c0.028-0.034 0.055-0.062 0.097-0.097l0.153-0.146c0.889-0.903 1.888-1.611 2.874-2.36l139.809-139.893c10.844-10.85 28.434-10.85 39.278 0l0.389 0.394c10.856 10.85 10.856 28.448 0 39.306l-94.355 94.409h45.621c0.195 0 0.361 0.049 0.542 0.055v-0.055h113.195c47.038 0 85.301-38.291 85.301-85.351v-85.269c0-15.716 12.731-28.455 28.434-28.455s28.434 12.738 28.434 28.455v85.269c0 78.561-63.642 142.254-142.169 142.254z" />
<glyph unicode="&#xe605;" d="M68.074 255.966l122.83 122.866c10.843 10.85 10.843 28.448 0 39.298l-0.403 0.396c-10.843 10.857-28.434 10.857-39.278 0l-139.866-139.894c-0.973-0.75-1.972-1.458-2.874-2.353l-0.402-0.395c-5.484-5.499-8.149-12.718-8.080-19.917-0.070-7.198 2.595-14.418 8.080-19.916l0.402-0.395c0.903-0.895 1.902-1.603 2.874-2.353l139.866-139.894c10.843-10.857 28.434-10.857 39.278 0l0.403 0.396c10.843 10.85 10.843 28.448 0 39.298l-122.83 122.863zM369.672 284.414h-130.952l94.382 94.418c10.842 10.85 10.842 28.448 0 39.298l-0.402 0.396c-10.844 10.857-28.435 10.857-39.278 0l-139.866-139.894c-0.972-0.75-1.971-1.458-2.861-2.353l-0.153-0.146c-0.042-0.035-0.070-0.070-0.097-0.104l-0.167-0.146c-0.944-0.966-1.722-2.034-2.512-3.089-0.237-0.326-0.542-0.612-0.763-0.951-3.249-4.734-4.859-10.241-4.832-15.752 0-0.042-0.028-0.083-0.028-0.125s0.028-0.083 0.028-0.125c-0.028-5.511 1.582-11.017 4.832-15.758 0.222-0.326 0.514-0.603 0.75-0.93 0.804-1.062 1.568-2.139 2.526-3.103l0.167-0.146c0.028-0.034 0.055-0.070 0.083-0.097l0.167-0.153c0.889-0.895 1.888-1.603 2.874-2.353l139.851-139.894c10.842-10.857 28.434-10.857 39.278 0l0.402 0.396c10.842 10.85 10.842 28.448 0 39.298l-94.382 94.417h130.952c47.038 0 85.33-38.291 85.33-85.351v-85.278c0-15.709 12.717-28.448 28.434-28.448 15.702 0 28.431 12.738 28.431 28.448v85.278c0.003 78.563-63.655 142.247-142.195 142.247z" />
<glyph unicode="&#xe606;" d="M475.334 247.751l-170.672 170.567c-11.132 11.13-29.17 11.13-40.315 0-11.13-11.125-11.13-29.163 0-40.295l122.103-122.024h-329.671c-15.719 0-28.462-12.737-28.462-28.441 0-15.71 12.743-28.447 28.462-28.447h329.666l-122.097-122.024c-11.131-11.13-11.131-29.168 0.015-40.295 11.13-11.13 29.184-11.13 40.315 0l170.658 170.569c5.587 5.574 8.365 12.881 8.352 20.186 0.010 7.308-2.767 14.624-8.354 20.204z" />
<glyph unicode="&#xe607;" d="M56.889 455.111c-15.709 0-28.445-12.736-28.445-28.445v-398.222c0-15.709 12.736-28.445 28.445-28.445s28.444 12.736 28.444 28.445v398.222c0 15.709-12.736 28.445-28.445 28.445zM455.111 455.111h-284.445c-15.709 0-28.445-12.736-28.445-28.445v-227.555c0-15.709 12.736-28.445 28.445-28.445h284.445c15.709 0 28.445 12.736 28.445 28.445v227.555c0 15.709-12.736 28.445-28.445 28.445zM426.666 241.778c0-7.854-6.361-14.222-14.222-14.222h-199.111c-7.862 0-14.222 6.368-14.222 14.222v142.222c0 7.854 6.361 14.222 14.222 14.222h199.111c7.861 0 14.222-6.368 14.222-14.222v-142.222z" />
<glyph unicode="&#xe608;" d="M199.439 398.222c62.375 0 113.126-51.042 113.126-113.778 0-23.625-7.25-46.368-20.973-65.764l-11.139-15.73-15.639-11.188c-19.278-13.805-41.889-21.097-65.375-21.097-62.389 0-113.126 51.042-113.126 113.778s50.737 113.778 113.126 113.778zM199.439 455.111c-93.722 0-169.694-76.41-169.694-170.666s75.972-170.667 169.694-170.667c36.625 0 70.445 11.785 98.167 31.632l136.278-137.062c5.541-5.57 12.792-8.348 20.042-8.348s14.5 2.778 20.027 8.348c11.070 11.127 11.070 29.166 0 40.291l-136.277 137.062c19.736 27.889 31.445 61.91 31.445 98.743 0 94.257-75.973 170.667-169.681 170.667v0z" />
<glyph unicode="&#xe609;" d="M483.555 341.334h-113.778v85.333c0 15.709-12.736 28.445-28.445 28.445h-170.667c-15.708 0-28.445-12.736-28.445-28.445v-85.333h-113.778c-15.709 0-28.445-12.736-28.445-28.445v-28.445h56.889v-256c0-15.709 12.736-28.445 28.445-28.445h341.334c15.709 0 28.445 12.736 28.445 28.445v256h56.889v28.445c0 15.709-12.736 28.445-28.445 28.445zM199.111 398.222h113.778v-56.889h-113.778v56.889zM398.222 56.889h-284.445v227.555h284.445v-227.555zM184.889 113.778h28.445c7.862 0 14.222 6.368 14.222 14.222v85.334c0 7.854-6.361 14.222-14.222 14.222h-28.445c-7.862 0-14.222-6.368-14.222-14.222v-85.334c0-7.854 6.361-14.222 14.222-14.222zM298.666 113.778h28.445c7.861 0 14.222 6.368 14.222 14.222v85.334c0 7.854-6.361 14.222-14.222 14.222h-28.445c-7.861 0-14.222-6.368-14.222-14.222v-85.334c0-7.854 6.361-14.222 14.222-14.222z" />
<glyph unicode="&#xe60a;" d="M455.111 398.222h-398.222c-15.709 0-28.445-12.736-28.445-28.445v-284.445c0-15.709 12.736-28.445 28.445-28.445h398.222c15.709 0 28.445 12.736 28.445 28.445v284.445c0 15.709-12.736 28.445-28.445 28.445zM415.805 341.334l-159.805-108.98-159.805 108.98h319.611zM426.666 128c0-7.854-6.361-14.222-14.222-14.222h-312.889c-7.862 0-14.222 6.368-14.222 14.222v152.535l156.361-105.903c4.417-2.646 9.362-3.966 14.306-3.966s9.889 1.319 14.306 3.966l156.361 105.903v-152.535z" />
<glyph unicode="&#xe60b;" d="M256.445 398.222c78.167 0 141.778-63.798 141.778-142.222s-63.611-142.222-141.361-142.229l-1.694 0.104c-1.57 0.111-3.125 0.206-4.694 0.277l-9.555 0.396-104.237-31.243 17.889 70.613-14.694 21.255c-16.487 23.875-25.209 51.827-25.209 80.827 0 78.424 63.597 142.222 141.778 142.222zM256.445 455.111c-109.722 0-198.667-89.146-198.667-199.111 0-42.062 13.084-81.014 35.306-113.16l-36.194-142.84 191.208 57.313c2.792-0.118 5.528-0.424 8.347-0.424 109.723 0 198.666 89.146 198.666 199.111s-88.944 199.111-198.667 199.111v0z" />
<glyph unicode="&#xe60c;" d="M457.709 220.91c15.861 24.104 25.208 53.326 25.208 84.868 0 82.472-63.528 149.334-141.905 149.334-68.014 0-124.762-50.368-138.612-117.576-10.125 2.41-20.596 3.798-31.416 3.798-78.375 0-141.903-66.861-141.903-149.334 0-31.541 9.334-60.764 25.208-84.868l-25.845-107.132 136.583 42.986c1.986-0.092 3.945-0.319 5.958-0.319 68.014 0 124.763 50.368 138.612 117.576 10.125-2.41 20.598-3.798 31.417-3.798 2.016 0 3.974 0.229 5.958 0.319l136.583-42.986-25.847 107.132zM255.75 186.612c0-0.007 0-0.014 0-0.026-0.486-9.016-2.138-17.659-4.847-25.798-0.014-0.049-0.042-0.095-0.042-0.146-0.889-2.646-1.862-5.222-2.958-7.75-0.055-0.127-0.125-0.257-0.18-0.389-1.056-2.418-2.195-4.771-3.417-7.070-0.153-0.271-0.306-0.536-0.472-0.813-1.166-2.125-2.389-4.202-3.722-6.207-0.306-0.459-0.625-0.904-0.93-1.353-1.222-1.785-2.472-3.541-3.82-5.222-0.528-0.666-1.083-1.298-1.639-1.958-1.18-1.41-2.361-2.812-3.625-4.138-0.862-0.916-1.778-1.762-2.681-2.632-1.028-0.993-2.028-2.008-3.083-2.944-1.361-1.195-2.792-2.298-4.222-3.402-0.681-0.536-1.347-1.111-2.055-1.625-2.083-1.521-4.25-2.93-6.445-4.242-0.111-0.062-0.195-0.13-0.306-0.195-9.653-5.702-20.43-9.426-31.889-10.659-0.138-0.014-0.306-0.007-0.458-0.027-2.375-0.241-4.792-0.424-7.222-0.452l-0.375 0.027c-0.028 0-0.042 0.007-0.070 0.007-0.208 0-0.417-0.034-0.625-0.034-3.028 0-6.028 0.18-8.972 0.514l-4.195 0.188-50.153-15.785 2.237 9.313 5.805 23.993-8.612 13.096c-13.304 16.291-21.442 37.654-21.442 61.118 0 51.056 38.208 92.445 85.334 92.445 0.055 0 0.111-0.007 0.167-0.007 0.042 0 0.097 0.007 0.153 0.007 2.82 0 5.597-0.173 8.347-0.472 0.264-0.028 0.528-0.091 0.778-0.125 2.445-0.292 4.862-0.681 7.222-1.195 1.278-0.271 2.5-0.646 3.75-0.98 1.278-0.347 2.583-0.666 3.862-1.077 1.555-0.506 3.083-1.111 4.612-1.708 0.694-0.264 1.403-0.472 2.083-0.764 0-0.020 0.014-0.042 0.014-0.062 31.79-13.445 54.345-46.861 54.345-86.062 0-1.82-0.167-3.598-0.25-5.389v0zM410.195 252.181l-13.583-20.625 8.043-33.306-50.154 15.785-10-0.438c-1.306-0.055-2.582-0.146-3.861-0.236l-0.375-0.027c-10.541 0.104-20.598 2.396-29.903 6.326-6.639 37.257-26.445 69.541-54.111 91.507 2.584 48.459 39.555 87.056 84.764 87.056 46.875 0 85.016-41.472 85.016-92.445-0.002-19.313-5.474-37.84-15.836-53.597z" />
<glyph unicode="&#xe60d;" d="M390.097 265.854l-0.016-0.007c5.183 14.75 8.142 30.528 8.142 47.042 0 78.548-63.666 142.222-142.222 142.222s-142.222-63.674-142.222-142.222c0-16.514 2.958-32.292 8.138-47.042v0.007c-55.417-28.188-93.472-85.605-93.472-152.042v-85.326c0-15.736 12.75-28.486 28.486-28.486h398.139c15.736 0 28.486 12.75 28.486 28.486v85.326c0 66.438-38.042 123.854-93.459 152.042zM256 398.222c47.056 0 85.334-38.278 85.334-85.334s-38.277-85.334-85.334-85.334c-47.056 0-85.334 38.278-85.334 85.334s38.278 85.334 85.334 85.334zM426.666 56.889h-341.334v56.923c0 45.632 27.084 84.973 65.945 103.077 26-28.348 63.222-46.222 104.722-46.222s78.722 17.875 104.722 46.222c38.861-18.104 65.945-57.445 65.945-103.077v-56.923z" />
<glyph unicode="&#xe60e;" d="M415.291 284.445h-3.973c9.709 16.75 15.348 36.139 15.348 56.889 0 62.834-50.944 113.778-113.778 113.778s-113.778-50.944-113.778-113.778c-62.834 0-113.778-50.944-113.778-113.778 0-20.75 5.639-40.139 15.347-56.889h-3.972c-40.528-18.153-68.264-57.034-68.264-98.507v-43.716c0-9.973 15.75-28.445 27.555-28.445h288.889c11.805 0 24.889 18.472 24.889 28.445v43.716c0 14.465-3.555 28.548-9.666 41.618h98.555c11.805 0 24.889 18.472 24.889 28.445v43.716c0 41.472-27.736 80.354-68.264 98.507zM312.889 398.222c31.361 0 56.889-25.521 56.889-56.889s-25.528-56.889-56.889-56.889c-6 0-11.681 1.188-17.111 2.916-9.278 14.958-21.903 27.576-36.861 36.847-1.722 5.445-2.916 11.118-2.916 17.125 0 31.368 25.528 56.889 56.889 56.889zM199.111 284.445c31.417 0 56.889-25.472 56.889-56.889s-25.472-56.889-56.889-56.889c-28.111 0-51.334 20.452-55.916 47.257-0.612 3.125-0.972 6.326-0.972 9.632 0 31.417 25.472 56.889 56.889 56.889zM312.889 56.889h-227.555v15.271c0 15.438 10.138 31.493 25.555 41.618h176.445c15.417-10.125 25.555-26.18 25.555-41.618v-15.271zM426.666 170.667h-129.125c9.709 16.75 15.348 36.139 15.348 56.889h88.222c15.417-10.125 25.555-26.18 25.555-41.618v-15.271z" />
<glyph unicode="&#xe60f;" d="M312.889 341.334c65.306 0 117.958-55.319 113.514-121.57-4.042-60.403-56.986-105.986-117.528-105.986h-164.125c-29.694 0-56.25 21.652-59.138 51.208-3.306 33.91 23.361 62.57 56.611 62.57 1.667 0 3.306-0.153 4.917-0.284l21.972-1.868c12.917-1.097 24.944 6.687 29.25 18.93l7.278 20.798c15.986 45.577 59.082 76.202 107.25 76.202zM312.889 398.222c-74.459 0-137.611-47.771-160.93-114.271-3.208 0.271-6.445 0.493-9.736 0.493-62.834 0-113.778-50.938-113.778-113.778s50.944-113.778 113.778-113.778h170.666c94.25 0 170.667 76.41 170.667 170.667s-76.417 170.667-170.667 170.667v0z" />
<glyph unicode="&#xe610;" d="M483.291 270.223c-0.459 10.689-1.418 21.649-2.557 32.826-7.933 77.5-69.762 141.074-146.93 150.701-83.251 10.391-156.264-39.792-181.685-112.409-3.195 0.271-6.405 0.494-9.668 0.494-62.442 0-114.049-50.941-114.049-113.501v-28.317c0-15.489 13.502-28.102 28.963-28.102h0.57c15.448 0 27.241 13.28 27.241 28.762v22.346c-3.278 33.762 24.241 62.17 57.275 62.17 1.653 0 3.278-0.146 4.89-0.284l21.893 0.284c12.849-1.090 24.726 4.522 28.991 16.704l6.139 17.538c14.919 42.626 52.537 74.612 97.449 78.584 69.539 6.161 129.62-52.448 124.981-121.834l-0.095-5.959v-72.888h0.277c0.82-14.809 13.834-26.665 28.81-26.665h0.555c14.755 0 26.032 12.113 27.060 26.665h0.195v72.888h-0.308zM320.901 133.51l-36.604-37.452v103.339c0 15.55-12.543 28.158-28.019 28.158h-0.555c-15.476 0-28.018-12.608-28.018-28.158v-99.025l-3.682 0.59-31.811 31.686c-10.043 9.986-26.102 12.418-37.59 4.161-14.585-10.482-15.794-30.853-3.625-42.974l85.96-85.566c5.306-5.293 12.501-8.273 20.046-8.273 7.531 0 14.724 2.981 20.046 8.273l83.96 85.335c11.071 11.022 11.071 28.88 0 39.905-11.086 11.036-29.034 11.036-40.105 0z" />
<glyph unicode="&#xe611;" d="M483.293 270.221c-0.459 10.689-1.417 21.656-2.555 32.826-7.933 77.5-69.763 141.077-146.93 150.703-83.254 10.39-156.267-39.793-181.689-112.411-3.196 0.278-6.405 0.494-9.668 0.494-62.442 0-114.050-50.942-114.050-113.502v-28.317c0-15.49 13.502-28.104 28.963-28.104h0.57c15.448 0 27.242 13.28 27.242 28.762v22.345c-3.278 33.762 24.241 62.18 57.275 62.18 1.653 0 3.278-0.153 4.89-0.291l21.893 0.291c12.849-1.098 24.727 4.514 28.991 16.697l6.141 17.538c14.919 42.627 52.538 74.613 97.449 78.585 69.541 6.162 129.623-52.441 124.981-121.835l-0.096-5.96v-72.89h0.277c0.82-14.809 13.837-26.666 28.81-26.666h0.555c14.755 0 26.033 12.114 27.062 26.665h0.195v72.89l-0.306-0.001zM360.993 133.723l-85.947 85.566c-5.308 5.291-12.515 8.273-20.046 8.273s-14.726-2.982-20.047-8.273l-83.96-85.337c-11.072-11.022-11.072-28.88 0-39.905 11.071-11.030 29.018-11.030 40.090 0l36.619 37.452v-103.339c0-15.552 12.544-28.159 28.019-28.159h0.555c15.476 0 28.019 12.607 28.019 28.159v99.026l3.681-0.59 31.813-31.685c10.044-9.988 26.102-12.421 37.59-4.163 14.587 10.482 15.796 30.854 3.613 42.976z" />
<glyph unicode="&#xe612;" d="M483.288 298.667c-0.461 10.688-1.417 21.654-2.555 32.822-7.931 77.499-69.755 141.082-146.915 150.707-83.243 10.382-156.25-39.794-181.668-112.412-3.195 0.271-6.403 0.493-9.667 0.493-62.435 0.001-114.037-50.942-114.037-113.502v-28.322c0-15.473 13.501-28.099 28.96-28.099h0.571c15.445 0 27.239 13.279 27.239 28.766v22.342c-3.278 33.767 24.238 62.173 57.269 62.173 1.653 0 3.278-0.146 4.89-0.284l21.891 0.284c12.848-1.090 24.724 4.522 28.988 16.71l6.139 17.537c14.917 42.622 52.532 74.605 97.438 78.583 69.537 6.161 129.611-52.442 124.969-121.837l-0.098-5.961v-72.882h0.277c0.82-14.822 13.834-26.668 28.809-26.668h0.555c14.751 0 26.029 12.111 27.057 26.668h0.195v72.882h-0.305zM199.125 256.003c-15.709 0-28.446-12.738-28.446-28.441v-56.892c0-15.71 12.737-28.448 28.446-28.448 15.71 0 28.448 12.738 28.448 28.448v56.892c0 15.704-12.738 28.441-28.448 28.441zM199.125 85.328c-15.709 0-28.446-12.722-28.446-28.446v-56.88c0-15.71 12.737-28.446 28.446-28.446 15.71 0 28.448 12.736 28.448 28.446v56.88c0 15.724-12.738 28.446-28.448 28.446zM312.913 312.889c-15.712 0-28.447-12.737-28.447-28.447v-56.88c0-15.723 12.737-28.446 28.447-28.446s28.446 12.722 28.446 28.446v56.88c0 15.71-12.737 28.447-28.446 28.447zM312.913 142.222c-15.712 0-28.447-12.736-28.447-28.446v-56.894c0-15.696 12.737-28.432 28.447-28.432s28.446 12.736 28.446 28.432v56.894c0 15.71-12.737 28.446-28.446 28.446z" />
<glyph unicode="&#xe613;" d="M272.687 311.306c-5.652 1.070-11.25 1.583-16.709 1.583-52.653 0-94.153-47.563-83.82-102.042 6.333-33.402 33.681-60.722 67.111-67.042 5.653-1.070 11.237-1.583 16.709-1.583 52.654 0 94.139 47.555 83.82 102.034-6.334 33.403-33.68 60.723-67.111 67.049zM277.938 209.438c-5.445-6.563-13.445-10.326-21.959-10.326-2 0-4.055 0.202-6.125 0.59-10.43 1.973-19.778 11.313-21.75 21.736-2.195 11.5 2.014 19.528 5.917 24.237 5.43 6.563 13.445 10.326 21.958 10.326 1.986 0 4.041-0.202 6.111-0.59 10.43-1.973 19.793-11.319 21.764-21.736 2.182-11.501-2.012-19.528-5.914-24.237zM483.868 199.111h-57.153c-15.666 0-28.36 12.687-28.36 28.341v0.208c0 15.652 12.694 28.34 28.36 28.34h57.153c15.666 0 28.361-12.687 28.361-28.34v-0.208c0-15.654-12.694-28.341-28.361-28.341zM256.104 85.334h-0.208c-15.667 0-28.361-12.687-28.361-28.341v-57.097c0-15.651 12.694-28.341 28.361-28.341h0.208c15.666 0 28.362 12.687 28.362 28.341v57.097c-0.001 15.654-12.695 28.341-28.362 28.341zM255.895 369.778h0.208c15.666 0 28.362 12.687 28.362 28.341v57.097c0 15.653-12.694 28.34-28.361 28.34h-0.208c-15.667 0-28.361-12.687-28.361-28.34v-57.097c-0.001-15.654 12.694-28.34 28.36-28.34zM113.659 227.452v0.208c0 15.652-12.709 28.34-28.375 28.34h-57.139c-15.666 0-28.375-12.687-28.375-28.34v-0.208c0-15.652 12.709-28.341 28.375-28.341h57.139c15.666 0 28.375 12.687 28.375 28.341zM415.646 349.181l31.793 31.764c10.472 10.458 10.472 27.417 0 37.875s-27.445 10.458-37.904 0l-31.805-31.764c-10.459-10.459-10.459-27.417 0-37.875 10.471-10.465 27.442-10.465 37.916 0zM102.479 418.82c-10.472 10.459-27.445 10.459-37.916 0-10.459-10.459-10.459-27.417 0-37.875l31.805-31.763c10.459-10.465 27.43-10.465 37.903 0 10.472 10.459 10.472 27.417 0 37.874l-31.792 31.764zM96.368 105.931l-31.805-31.764c-10.459-10.459-10.459-27.417 0-37.874 10.472-10.465 27.445-10.465 37.916 0l31.792 31.762c10.472 10.459 10.472 27.418 0 37.875-10.473 10.465-27.445 10.465-37.903 0zM415.646 105.931c-10.471 10.465-27.445 10.465-37.916 0-10.459-10.459-10.459-27.417 0-37.875l31.805-31.762c10.459-10.465 27.43-10.465 37.904 0 10.472 10.459 10.472 27.417 0 37.874l-31.793 31.764z" />
<glyph unicode="&#xe614;" d="M206.118 390.98c-7.153-23.549-9.153-48.646-5.639-73.862 10.403-74.798 69.833-134.341 144.486-144.757 8.027-1.125 16.153-1.694 24.167-1.694 17.027 0 33.666 2.472 49.555 7.306-19.18-63-75.153-111.666-141.445-119.75-7.222-0.889-14.514-1.334-21.666-1.334-48.736 0-95.25 20.986-127.597 57.583-32.778 37.084-47.486 84.958-41.43 134.792 8.082 66.423 56.666 122.514 119.569 141.715zM255.562 455.111c-10.306 0-20.792-0.694-31.388-2.131-100.778-13.654-181.695-95.695-193.987-196.841-16.834-138.43 90.555-256.139 225.388-256.139 9.388 0 18.903 0.57 28.542 1.75 100.944 12.319 182.834 93.375 196.459 194.347 1.472 10.889 2.167 21.652 2.125 32.25-0.055 16.583-13.722 27.653-28.319 27.653-5.945 0-12.055-1.847-17.459-5.889-18.903-14.166-42.361-22.556-67.792-22.556-5.361 0-10.805 0.375-16.319 1.139-49.278 6.889-89.222 46.916-96.097 96.284-4.417 31.723 4.25 61.334 21.361 84.271 11.792 18.681 0.722 45.771-21.723 45.861-0.25 0-0.514 0-0.791 0v0z" />
<glyph unicode="&#xe615;" d="M455.111 170.667h-28.445v113.778c0 94.257-76.417 170.667-170.667 170.667-94.257 0-170.667-76.41-170.667-170.667v-113.778h-28.445c-15.709 0-28.445-12.736-28.445-28.445s12.736-28.445 28.445-28.445h398.222c15.709 0 28.445 12.736 28.445 28.445s-12.736 28.445-28.445 28.445zM369.778 170.667h-227.555v113.778c0 62.736 51.042 113.778 113.778 113.778s113.778-51.042 113.778-113.778v-113.778zM199.111 56.889c0-31.417 25.472-56.889 56.889-56.889s56.889 25.472 56.889 56.889v28.445h-113.778v-28.445z" />
<glyph unicode="&#xe616;" d="M169.653 369.778l36.070-36.062c13.417-13.431 31.278-20.827 50.278-20.827h170.667v-227.555h-341.334v284.445h84.319zM187.333 426.667h-130.445c-15.709 0-28.445-12.736-28.445-28.444v-341.334c0-15.709 12.736-28.445 28.445-28.445h398.222c15.709 0 28.445 12.736 28.445 28.445v284.445c0 15.709-12.736 28.445-28.445 28.445h-199.111c-3.778 0-7.388 1.5-10.055 4.167l-48.555 48.555c-2.667 2.666-6.278 4.166-10.056 4.166v0z" />
<glyph unicode="&#xe617;" d="M426.666 426.667v28.445h-341.334v-28.445c0-15.708 12.736-28.444 28.445-28.444v-227.556c-15.709 0-28.445-12.736-28.445-28.445v-28.445h142.222v-85.334c0-15.709 12.736-28.445 28.445-28.445s28.444 12.736 28.444 28.445v85.334h142.222v28.445c0 15.709-12.736 28.445-28.445 28.445v227.555c15.709 0 28.445 12.736 28.445 28.445zM341.334 170.667h-170.667v227.555h170.667v-227.555z" />
<glyph unicode="&#xe618;" d="M290.528 426.667c-3.166 0-6.389-0.909-9.5-2.882l-115.138-79.924c-2.361-1.646-5.166-2.528-8.055-2.528h-101.056c-15.653 0-28.334-12.736-28.334-28.445v-170.667c0-15.709 12.681-28.445 28.334-28.445h101.056c2.889 0 5.694-0.882 8.055-2.528l115.138-79.923c3.111-1.973 6.348-2.882 9.5-2.882 11.139 0 21.25 11.368 21.25 27v344.215c0 15.639-10.111 27.007-21.25 27.007zM255.111 118.486l-67.89 47.132c-4.736 3.284-10.361 5.050-16.111 5.050h-71.833c-7.833 0-14.167 6.368-14.167 14.222v85.334c0 7.854 6.334 14.222 14.167 14.222h71.834c5.75 0 11.375 1.763 16.111 5.049l67.889 47.13v-218.138zM481.666 233.264c-2.445 49.708-43.056 85.070-71.306 103.785-13.375 8.869-31.111 3.465-37.682-11.597l-1.068-2.445c-5.334-12.25-1.291-26.702 9.555-33.973 20.084-13.452 45.111-35.479 46.195-58.743 0.916-19.236-15.723-41.75-47.306-64.555-11.334-8.188-15.056-23.854-8.111-36.277l1.195-2.146c7.555-13.5 24.639-17.743 36.972-8.881 49.5 35.575 73.555 74.116 71.555 114.832z" />
<glyph unicode="&#xe619;" d="M426.666 341.334c-15.709 0-28.445-12.736-28.445-28.445v-51.869c0-75.674-56.972-141.862-132.486-146.916-82.805-5.541-151.958 60.25-151.958 141.896v56.889c0 15.708-12.736 28.445-28.445 28.445s-28.445-12.736-28.445-28.445v-51.264c0-100.843 72.889-188.437 170.667-202.689v-30.491c0-15.709 12.736-28.445 28.445-28.445s28.445 12.736 28.445 28.445v30.474c96.493 13.8 170.666 96.771 170.666 197.081v56.889c0 15.708-12.736 28.445-28.445 28.445zM256 455.111c-47.125 0-85.334-38.208-85.334-85.334v-113.778c0-47.126 38.208-85.334 85.334-85.334s85.334 38.208 85.334 85.334v113.778c0 47.125-38.208 85.334-85.334 85.334zM284.445 256c0-15.687-12.764-28.445-28.445-28.445-15.694 0-28.445 12.757-28.445 28.445v113.778c0 15.681 12.75 28.445 28.445 28.445 15.681 0 28.445-12.764 28.445-28.445v-113.778z" />
<glyph unicode="&#xe61a;" d="M483.555 369.778h-113.778l-48.555 48.556c-5.334 5.333-12.57 8.333-20.111 8.333h-90.222c-7.542 0-14.778-3-20.111-8.333l-48.555-48.555h-113.778c-15.709 0-28.445-12.736-28.445-28.445v-284.445c0-15.709 12.736-28.445 28.445-28.445h56.889c15.709 0 28.445 12.736 28.445 28.445s-12.736 28.445-28.445 28.445h-14.222c-7.861 0-14.222 6.368-14.222 14.222v199.111c0 7.854 6.361 14.222 14.222 14.222h94.681l56.889 56.889h66.639l56.888-56.889h94.681c7.861 0 14.222-6.368 14.222-14.222v-199.111c0-7.854-6.361-14.222-14.222-14.222h-14.222c-15.709 0-28.445-12.736-28.445-28.445 0-15.563 12.5-28.16 28.014-28.402l-0.014-0.042h57.334c15.709 0 28.444 12.736 28.444 28.445v284.445c0 15.709-12.736 28.445-28.445 28.445zM256 227.556c31.375 0 56.889-25.521 56.889-56.889s-25.514-56.889-56.889-56.889-56.889 25.521-56.889 56.889 25.514 56.889 56.889 56.889zM256 284.445c-62.834 0-113.778-50.938-113.778-113.778s50.944-113.778 113.778-113.778 113.778 50.938 113.778 113.778-50.944 113.778-113.778 113.778v0z" />
<glyph unicode="&#xe61b;" d="M483.552 455.111h-455.105c-15.705 0-28.438-12.733-28.438-28.439v-398.226c0-15.706 12.733-28.446 28.438-28.446h455.105c15.705 0 28.439 12.74 28.439 28.446v398.226c0 15.706-12.734 28.439-28.439 28.439zM455.099 71.111c0-7.853-6.359-14.219-14.219-14.219h-230.331l159.336 159.341 85.214-85.211v-59.91zM455.099 210.331l-61.731 61.726c-0.986 1.455-2.12 2.841-3.408 4.131-5.589 5.589-12.942 8.335-20.266 8.251-7.284 0.084-14.598-2.649-20.158-8.21-1.149-1.149-2.17-2.378-3.078-3.662l-215.669-215.675h-59.669c-7.859 0-14.218 6.367-14.218 14.219v312.889c0 7.861 6.359 14.226 14.218 14.226h369.761c7.86 0 14.219-6.366 14.219-14.226v-173.669zM170.669 341.335c-31.425 0-56.892-25.466-56.892-56.892 0-31.418 25.466-56.885 56.892-56.885 31.41 0 56.892 25.466 56.892 56.885 0 31.425-25.482 56.892-56.892 56.892z" />
<glyph unicode="&#xe61c;" d="M459.792 259.966l-37.694 6.277c-4.348 18.694-11.75 36.173-21.666 51.951l20.986 29.388c8 11.208 6.736 26.555-3 36.298l-6.097 6.091c-9.736 9.736-25.084 11.007-36.291 3l-29.389-20.993c-15.778 9.923-33.25 17.334-51.945 21.674l-6.291 37.687c-2.278 13.716-14.154 23.772-28.056 23.772h-8.694c-13.903 0-25.778-10.055-28.055-23.771l-6.292-37.687c-18.694-4.341-36.167-11.75-51.945-21.674l-29.388 20.993c-11.208 8.007-26.555 6.736-36.291-3l-6.097-6.090c-9.736-9.743-11-25.091-3-36.299l20.986-29.388c-9.916-15.778-17.319-33.257-21.666-51.951l-37.694-6.277c-13.71-2.293-23.765-14.161-23.765-28.063v-8.694c0-13.903 10.055-25.77 23.764-28.055l37.694-6.284c4.347-18.694 11.75-36.173 21.666-51.951l-20.986-29.389c-8-11.208-6.736-26.555 3-36.298l6.097-6.091c9.736-9.736 25.084-11.007 36.292-3l29.388 20.993c15.778-9.923 33.25-17.334 51.945-21.674l6.292-37.687c2.278-13.716 14.153-23.77 28.055-23.77h8.694c13.903 0 25.778 10.055 28.055 23.77l6.291 37.687c18.694 4.341 36.167 11.75 51.945 21.674l29.389-20.993c11.208-8.007 26.555-6.736 36.291 3l6.097 6.091c9.736 9.743 11 25.091 3 36.298l-20.986 29.389c9.916 15.778 17.319 33.257 21.666 51.951l37.694 6.284c13.709 2.284 23.764 14.153 23.764 28.055v8.694c0.002 13.902-10.053 25.77-23.761 28.062zM256 142.222c-47.125 0-85.334 38.208-85.334 85.334s38.208 85.334 85.334 85.334 85.334-38.208 85.334-85.334-38.208-85.334-85.334-85.334z" />
<glyph unicode="&#xe61d;" d="M327.111 170.667h-42.666v99.555c0 7.854-6.361 14.222-14.222 14.222h-85.334c-7.862 0-14.222-6.368-14.222-14.222v-28.445c0-7.854 6.361-14.222 14.222-14.222h42.666v-56.889h-42.666c-7.862 0-14.222-6.368-14.222-14.222v-28.445c0-7.854 6.361-14.222 14.222-14.222h142.222c7.861 0 14.222 6.368 14.222 14.222v28.445c0 7.854-6.361 14.222-14.222 14.222zM455.111 455.111h-398.222c-15.709 0-28.445-12.736-28.445-28.445v-398.222c0-15.709 12.736-28.445 28.445-28.445h398.222c15.709 0 28.445 12.736 28.445 28.445v398.222c0 15.709-12.736 28.445-28.445 28.445zM426.666 71.111c0-7.854-6.361-14.222-14.222-14.222h-312.889c-7.862 0-14.222 6.368-14.222 14.222v256c0 7.854 6.361 14.222 14.222 14.222h312.889c7.861 0 14.222-6.368 14.222-14.222v-256z" />
<glyph unicode="&#xe61e;" d="M426.666 455.111h-312.889c-31.417 0-56.889-25.472-56.889-56.889v-341.334c0-31.417 25.472-56.889 56.889-56.889h312.889c15.709 0 28.445 12.736 28.445 28.445v398.222c0 15.709-12.736 28.445-28.445 28.445zM398.222 71.111c0-7.854-6.361-14.222-14.222-14.222h-242.055c-15.555 0-28.167 12.611-28.167 28.16v0.57c0 15.548 12.612 28.16 28.167 28.16h242.055c7.861 0 14.222-6.368 14.222-14.222v-28.445zM398.222 184c0-7.854-6.361-14.222-14.222-14.222h-199.111c-7.862 0-14.222 6.368-14.222 14.222v200c0 7.854 6.361 14.222 14.222 14.222h199.111c7.861 0 14.222-6.368 14.222-14.222v-200zM327.111 341.334h-85.334c-7.862 0-14.222-6.368-14.222-14.222v-28.445c0-7.854 6.361-14.222 14.222-14.222h85.334c7.861 0 14.222 6.368 14.222 14.222v28.445c0 7.854-6.361 14.222-14.222 14.222z" />
<glyph unicode="&#xe61f;" d="M256 455.111c-109.972-0.138-199.111-88.75-199.111-198.055 0-157.153 142.778-236.292 185.138-254.653 3.667-1.598 7.583-2.402 11.486-2.402 0.834 0 1.653 0.18 2.486 0.25 0.834-0.070 1.653-0.25 2.486-0.25 3.903 0 7.82 0.805 11.486 2.402 42.361 18.36 185.139 97.5 185.139 254.653 0 109.305-89.125 197.916-199.111 198.055zM258.5 59.875c-0.75 0.389-1.681 0.875-2.5 1.291-0.82-0.417-1.75-0.903-2.5-1.291-36.5 18.431-139.722 80.875-139.722 197.182 0 77.763 63.778 141.027 142.222 141.166 78.445-0.139 142.222-63.403 142.222-141.166 0-116.306-103.222-178.75-139.722-197.182zM256 312.903c-31.417 0-56.889-25.472-56.889-56.903 0-31.417 25.472-56.889 56.889-56.889s56.889 25.472 56.889 56.889c0 31.43-25.472 56.903-56.889 56.903z" />
<glyph unicode="&#xe620;" d="M398.474 170.667h-0.555c-15.555 0-28.167-12.611-28.167-28.167v-71.389c0-7.847-6.361-14.222-14.222-14.222h-199.069c-7.847 0-14.208 6.375-14.208 14.222v71.389c0 15.555-12.612 28.167-28.167 28.167h-0.57c-15.541 0-28.153-12.611-28.153-28.167v-114.334c0-15.555 12.612-28.167 28.153-28.167h284.958c15.555 0 28.167 12.611 28.167 28.167v114.334c0 15.555-12.611 28.167-28.167 28.167zM456.905 383.945l-44.541 44.555c-17.681 17.681-40.805 26.375-63.973 26.375-2.361 0-4.722-0.097-7.084-0.277v0.513h-170.625v-0.514c-2.361 0.18-4.722 0.277-7.083 0.277-23.153 0-46.278-8.694-63.958-26.375l-44.556-44.555c-35.472-35.472-35.472-93 0-128.486l1.306-1.292c17.736-17.736 40.971-26.611 64.222-26.611s46.499 8.875 64.222 26.612l4.708 4.694c15.486-19.084 39.111-31.306 65.597-31.306h1.709c26.5 0 50.125 12.222 65.598 31.306l4.709-4.694c17.736-17.737 40.986-26.611 64.236-26.611 23.236 0 46.486 8.875 64.222 26.611l1.291 1.292c35.486 35.486 35.486 93.013 0.001 128.486zM416.696 295.694l-1.306-1.306c-6.417-6.417-14.944-9.945-24-9.945-9.084 0-17.611 3.528-24.027 9.945l-4.694 4.709-40.195 40.208c-2.361 2.361-6.25 2.167-8.361-0.43l-35.833-44.167c-5.278-6.527-13.098-10.263-21.431-10.263h-1.708c-8.333 0-16.138 3.736-21.417 10.264l-35.166 43.334c-2.458 3.042-7.014 3.278-9.778 0.514l-44.153-44.167c-6.417-6.416-14.93-9.944-24.014-9.944-9.070 0-17.597 3.528-24 9.945l-1.306 1.306c-13.25 13.264-13.25 34.763 0 48.027l44.555 44.555c8.445 8.445 18.5 9.709 23.736 9.709 0.917 0 6.18 0.306 7.083 0.236h170.625c0.916 0.070 6.18-0.236 7.084-0.236 5.25 0 15.306-1.264 23.75-9.709l44.555-44.555c13.25-13.264 13.25-34.764 0-48.029z" />
<glyph unicode="&#xe621;" d="M256 455.111c-125.666 0-227.555-101.874-227.555-227.555s101.889-227.555 227.555-227.555 227.555 101.875 227.555 227.555-101.889 227.555-227.555 227.555zM256 398.222c36.805 0 70.834-11.82 98.722-31.709l-41.014-41.028c-16.93 10-36.624 15.847-57.707 15.847s-40.778-5.847-57.709-15.847l-41.014 41.028c27.889 19.889 61.917 31.709 98.723 31.709zM312.889 227.556c0-3.014-0.361-5.916-0.889-8.778-3.792-24.334-22.889-43.43-47.222-47.222-2.861-0.514-5.778-0.889-8.778-0.889s-5.917 0.375-8.778 0.889c-24.333 3.792-43.43 22.889-47.222 47.222-0.528 2.861-0.889 5.764-0.889 8.778s0.361 5.917 0.889 8.778c3.792 24.333 22.889 43.43 47.222 47.222 2.862 0.514 5.778 0.889 8.778 0.889s5.916-0.375 8.778-0.889c24.334-3.792 43.43-22.889 47.222-47.222 0.528-2.862 0.889-5.764 0.889-8.778zM85.334 227.556c0 36.805 11.833 70.82 31.709 98.722l41.014-41.014c-10.001-16.93-15.834-36.611-15.834-57.707s5.833-40.778 15.833-57.709l-41.014-41.027c-19.874 27.916-31.707 61.93-31.707 98.736zM256 56.889c-36.805 0-70.834 11.82-98.722 31.709l41.014 41.028c16.93-10 36.624-15.847 57.708-15.847s40.778 5.847 57.708 15.847l41.014-41.028c-27.889-19.889-61.918-31.709-98.722-31.709zM394.958 128.82l-41.027 41.028c10.014 16.93 15.847 36.611 15.847 57.709s-5.833 40.778-15.847 57.709l41.028 41.014c19.875-27.903 31.709-61.917 31.709-98.722s-11.833-70.82-31.709-98.736z" />
<glyph unicode="&#xe622;" d="M474.816 241.497l-204.228 205.033c-5.47 5.499-12.913 8.582-20.661 8.582h-192.078c-16.108 0-29.174-13.066-29.174-29.202v-192.064c0-7.748 3.082-15.177 8.554-20.648l204.644-204.658c5.692-5.692 13.163-8.539 20.62-8.539s14.927 2.847 20.62 8.539l191.661 191.675c11.387 11.386 11.4 29.869 0.042 41.282zM405.014 210.866l-132.482-132.482c-5.555-5.554-14.537-5.554-20.078 0l-166.931 166.945v138.675c0 7.846 6.359 14.219 14.191 14.219h138.73l166.584-167.25c5.554-5.555 5.526-14.552-0.014-20.107zM227.599 298.663c0-23.564-19.093-42.67-42.629-42.67-23.55 0-42.629 19.107-42.629 42.67 0 23.565 19.078 42.67 42.629 42.67 23.535 0 42.629-19.106 42.629-42.67z" />
<glyph unicode="&#xe623;" d="M355.555 369.778c39.208 0 71.111-38.277 71.111-85.333 0-89.723-108.612-162.5-170.667-193.43-62.126 30.971-170.667 103.736-170.667 193.43 0 47.056 31.903 85.334 71.111 85.334 18.291 0 38.306-12.514 53.555-33.472l23-25.195c11.361-15.611 34.639-15.611 46 0l23 25.195c15.25 20.958 35.264 33.472 53.555 33.472zM355.555 426.667c-40.236 0-76.084-24.639-99.555-56.889-23.472 32.25-59.319 56.889-99.555 56.889-70.694 0-128-63.681-128-142.222 0-162.667 227.555-256 227.555-256s227.555 93.334 227.555 256c0 78.542-57.306 142.222-128 142.222v0z" />
<glyph unicode="&#xe624;" d="M483.583 369.778c-3.291 0-6.681-0.639-10.014-2.014l-132.236-54.401v56.415c0 15.709-12.736 28.445-28.445 28.445h-284.445c-15.709 0-28.445-12.736-28.445-28.445v-284.445c0-15.709 12.736-28.445 28.445-28.445h284.445c15.709 0 28.445 12.736 28.445 28.445v56.416l132.237-54.402c3.334-1.375 6.722-2.014 10.014-2.014 15.068 0 28.416 13.361 28.416 31.236v221.971c0 17.876-13.348 31.237-28.417 31.237zM284.445 128c0-7.861-6.361-14.222-14.222-14.222h-199.111c-7.861 0-14.222 6.361-14.222 14.222v199.111c0 7.862 6.361 14.222 14.222 14.222h199.111c7.861 0 14.222-6.361 14.222-14.222v-199.111zM455.111 156.459l-113.778 46.805v48.583l113.778 46.805v-142.194z" />
<glyph unicode="&#xe625;" d="M483.555 398.222h-85.334v28.444c0 15.709-12.736 28.445-28.445 28.445h-227.555c-15.709 0-28.445-12.736-28.445-28.445v-28.444h-85.334c-15.709 0-28.445-12.736-28.445-28.445v-56.889c0-45.723 30.306-113.778 113.778-113.778h11.916c18.277-41.818 56.057-73.167 101.862-82.479v-59.743h-28.445c-31.417 0-56.889-25.472-56.889-56.889h227.555c0 31.417-25.472 56.889-56.889 56.889h-28.445v59.743c45.803 9.312 83.583 40.661 101.861 82.479h11.916c83.472 0 113.778 68.055 113.778 113.778v56.889c0 15.709-12.736 28.445-28.445 28.445zM113.778 256c-51.945 0-56.666 43.694-56.889 56.889v28.445h56.889v-85.334zM341.334 238.25l-7.153-16.348c-13.611-31.125-44.291-51.236-78.18-51.236s-64.583 20.111-78.18 51.236l-7.153 16.346v159.973h170.667v-159.973zM455.111 312.889c0-9.5-2.75-56.889-56.889-56.889v85.333h56.889v-28.445zM398.861 198.486c0.43 0 0.486 0.153-0.639 0.625v-0.555c0.236-0.042 0.472-0.070 0.639-0.070zM113.138 198.486c0.167 0 0.403 0.027 0.639 0.070v0.555c-1.126-0.472-1.070-0.625-0.639-0.625z" />
<glyph unicode="&#xe626;" d="M407.088 227.556c19.764 0 36.944 13.583 41.5 32.82l33.583 141.723c6.736 26.93-13.626 53.013-41.375 53.013h-383.834c-15.694 0-28.43-12.736-28.43-28.445s12.736-28.444 28.43-28.444h28.445v-241.778c0-23.57 19.097-42.666 42.639-42.666h298.555c15.709 0 28.43 12.736 28.43 28.445s-12.722 28.445-28.43 28.445h-284.334v56.889h264.82zM142.268 398.222h280.541l-26.958-113.778h-253.583v113.778zM156.49 85.334c-23.555 0-42.653-19.097-42.653-42.666s19.097-42.666 42.653-42.666 42.653 19.097 42.653 42.666-19.097 42.666-42.653 42.666zM383.949 85.334c-23.555 0-42.639-19.097-42.639-42.666s19.084-42.666 42.639-42.666 42.652 19.097 42.652 42.666-19.097 42.666-42.653 42.666z" />
<glyph unicode="&#xe627;" d="M256 426.667c-92.805 0-185.597-66.375-256-199.111 70.403-132.736 163.195-199.111 256-199.111s185.597 66.375 256 199.111c-70.403 132.736-163.195 199.111-256 199.111zM256 85.334c-67.486 0-135.945 51.43-190.667 142.222 54.722 90.792 123.18 142.222 190.667 142.222s135.945-51.43 190.667-142.222c-54.722-90.792-123.18-142.222-190.667-142.222zM312.889 227.556c0-31.417-25.472-56.889-56.889-56.889s-56.889 25.472-56.889 56.889 25.472 56.889 56.889 56.889 56.889-25.472 56.889-56.889z" />
<glyph unicode="&#xe628;" d="M256 455.111c-125.681 0-227.555-101.874-227.555-227.555s101.875-227.555 227.555-227.555 227.555 101.875 227.555 227.555-101.875 227.555-227.555 227.555zM85.334 227.556c0 36.82 11.833 70.847 31.736 98.764l237.694-237.694c-27.916-19.903-61.944-31.736-98.764-31.736-94.111 0-170.667 76.555-170.667 170.667zM394.93 128.792l-237.694 237.694c27.917 19.903 61.944 31.736 98.763 31.736 94.111 0 170.667-76.555 170.667-170.667 0-36.82-11.833-70.847-31.736-98.763z" />
<glyph unicode="&#xe629;" d="M85.334 56.889v398.222h-56.889v-426.666c0-15.709 12.736-28.445 28.444-28.445h426.666v56.889h-398.222zM156.445 113.778h28.445c7.862 0 14.222 6.361 14.222 14.222v142.222c0 7.861-6.361 14.222-14.222 14.222h-28.445c-7.862 0-14.222-6.361-14.222-14.222v-142.222c0-7.861 6.361-14.222 14.222-14.222zM241.778 113.778h28.444c7.861 0 14.222 6.361 14.222 14.222v256c0 7.862-6.361 14.222-14.222 14.222h-28.445c-7.862 0-14.222-6.361-14.222-14.222v-256c0-7.861 6.361-14.222 14.222-14.222zM327.111 113.778h28.445c7.861 0 14.222 6.361 14.222 14.222v85.334c0 7.861-6.361 14.222-14.222 14.222h-28.445c-7.861 0-14.222-6.361-14.222-14.222v-85.334c0-7.861 6.361-14.222 14.222-14.222zM412.445 113.778h28.445c7.861 0 14.222 6.361 14.222 14.222v199.111c0 7.862-6.361 14.222-14.222 14.222h-28.445c-7.861 0-14.222-6.361-14.222-14.222v-199.111c0-7.861 6.361-14.222 14.222-14.222z" />
<glyph unicode="&#xe62a;" d="M455.111 256h-30.818c-11.993 71.459-68.389 127.856-139.849 139.849v30.818c0 15.709-12.736 28.445-28.445 28.445s-28.445-12.736-28.445-28.445v-30.818c-71.459-11.993-127.856-68.39-139.849-139.849h-30.818c-15.709 0-28.445-12.736-28.445-28.445s12.736-28.445 28.445-28.445h30.818c11.993-71.459 68.39-127.856 139.849-139.849v-30.818c0-15.709 12.736-28.445 28.445-28.445s28.445 12.736 28.445 28.445v30.818c71.459 11.993 127.856 68.389 139.849 139.849h30.818c15.709 0 28.445 12.736 28.445 28.445s-12.736 28.445-28.445 28.445zM284.445 117.378v24.844c0 15.709-12.736 28.445-28.445 28.445s-28.445-12.736-28.445-28.445v-24.844c-39.923 10.314-71.419 41.81-81.733 81.733h24.845c15.708 0 28.445 12.736 28.445 28.445s-12.736 28.445-28.445 28.445h-24.845c10.314 39.923 41.81 71.42 81.733 81.733v-24.844c0-15.709 12.736-28.445 28.445-28.445s28.445 12.736 28.445 28.445v24.844c39.923-10.314 71.421-41.81 81.733-81.733h-24.844c-15.709 0-28.445-12.736-28.445-28.445s12.736-28.445 28.445-28.445h24.844c-10.313-39.923-41.81-71.421-81.733-81.733z" />
<glyph unicode="&#xe62b;" d="M483.555 398.222h-113.778v28.444c0 15.709-12.736 28.445-28.445 28.445h-170.667c-15.708 0-28.445-12.736-28.445-28.445v-28.444h-113.778c-15.709 0-28.445-12.736-28.445-28.445v-227.555c0-15.709 12.736-28.445 28.445-28.445h56.889v-85.334c0-15.709 12.736-28.445 28.445-28.445h284.445c15.709 0 28.445 12.736 28.445 28.445v85.334h56.889c15.709 0 28.445 12.736 28.445 28.445v227.555c0 15.709-12.736 28.445-28.445 28.445zM369.778 56.889h-227.555v113.778h227.555v-113.778zM455.111 184.889c0-7.861-6.361-14.222-14.222-14.222h-14.222v28.445c0 15.709-12.736 28.445-28.445 28.445h-284.445c-15.709 0-28.445-12.736-28.445-28.445v-28.445h-14.222c-7.861 0-14.222 6.361-14.222 14.222v142.222c0 7.861 6.361 14.222 14.222 14.222h369.778c7.861 0 14.222-6.361 14.222-14.222v-142.222z" />
<glyph unicode="&#xe62c;" d="M227.555 289.308v-147.085c0-15.709 12.736-28.445 28.445-28.445s28.445 12.736 28.445 28.445v147.086c33.141 11.717 56.889 43.32 56.889 80.47 0 47.126-38.208 85.334-85.334 85.334s-85.334-38.208-85.334-85.334c0-37.15 23.749-68.754 56.889-80.47zM455.111 284.445h-56.889c-15.709 0-28.445-12.736-28.445-28.445s12.736-28.445 28.445-28.445h14.222c7.861 0 14.222-6.361 14.222-14.222v-142.222c0-7.861-6.361-14.222-14.222-14.222h-312.889c-7.862 0-14.222 6.361-14.222 14.222v142.222c0 7.861 6.361 14.222 14.222 14.222h14.222c15.709 0 28.444 12.736 28.444 28.445s-12.736 28.445-28.445 28.445h-56.889c-15.709 0-28.445-12.736-28.445-28.445v-227.556c0-15.709 12.736-28.445 28.445-28.445h398.222c15.709 0 28.445 12.736 28.445 28.445v227.555c0 15.709-12.736 28.445-28.445 28.445z" />
<glyph unicode="&#xe62d;" d="M398.222 455.111h-284.445c-15.709 0-28.445-12.736-28.445-28.445v-398.18c0-16.723 13.736-28.486 28.528-28.486 5.278 0 10.722 1.5 15.694 4.82l117.166 100.958c5.333 4.598 13.222 4.598 18.555 0l117.167-100.958c4.973-3.319 10.402-4.82 15.694-4.82 14.792 0 28.528 11.764 28.528 28.486v398.18c0 15.709-12.736 28.445-28.445 28.445zM369.778 90.834l-104.5 90.041c-5.334 4.598-13.222 4.598-18.555 0l-104.5-90.041v293.166c0 7.862 6.361 14.222 14.222 14.222h199.111c7.861 0 14.222-6.361 14.222-14.222v-293.166z" />
<glyph unicode="&#xe62e;" d="M455.111 455.111h-398.222c-15.709 0-28.445-12.736-28.445-28.445v-341.334c0-15.709 12.736-28.445 28.445-28.445h156.445c-23.57 0-42.666-19.097-42.666-42.666v-14.222h170.667v14.222c0 23.57-19.097 42.666-42.666 42.666h156.445c15.709 0 28.445 12.736 28.445 28.445v341.334c0 15.709-12.736 28.445-28.445 28.445zM426.666 128c0-7.861-6.361-14.222-14.222-14.222h-312.889c-7.862 0-14.222 6.361-14.222 14.222v256c0 7.862 6.361 14.222 14.222 14.222h312.889c7.861 0 14.222-6.361 14.222-14.222v-256z" />
<glyph unicode="&#xe62f;" d="M256 455.111c-125.681 0-227.555-101.874-227.555-227.555s101.875-227.555 227.555-227.555 227.555 101.875 227.555 227.555-101.875 227.555-227.555 227.555zM256 56.889c-94.111 0-170.667 76.555-170.667 170.667s76.555 170.666 170.667 170.666 170.667-76.555 170.667-170.666-76.555-170.667-170.667-170.667zM333.417 304.583l-0.389 0.389c-10.555 10.555-27.666 10.555-38.222 0l-38.805-38.805-38.805 38.805c-10.555 10.555-27.666 10.555-38.222 0l-0.389-0.389c-10.555-10.555-10.555-27.667 0-38.222l38.805-38.805-38.805-38.805c-10.555-10.555-10.555-27.666 0-38.222l0.389-0.389c10.555-10.555 27.667-10.555 38.222 0l38.805 38.805 38.805-38.805c10.555-10.555 27.666-10.555 38.222 0l0.389 0.389c10.555 10.555 10.555 27.666 0 38.222l-38.805 38.805 38.805 38.805c10.555 10.555 10.555 27.666 0 38.222z" />
<glyph unicode="&#xe630;" d="M256 455.111c-125.681 0-227.555-101.874-227.555-227.555s101.875-227.555 227.555-227.555 227.555 101.875 227.555 227.555-101.875 227.555-227.555 227.555zM256 56.889c-94.111 0-170.667 76.555-170.667 170.667s76.555 170.666 170.667 170.666 170.667-76.555 170.667-170.666-76.555-170.667-170.667-170.667zM341.611 256h-57.166v57.166c0 15.555-12.611 28.167-28.167 28.167h-0.555c-15.555 0-28.167-12.612-28.167-28.167v-57.166h-57.166c-15.555 0-28.167-12.611-28.167-28.167v-0.556c0-15.555 12.612-28.167 28.167-28.167h57.167v-57.166c0-15.555 12.612-28.167 28.167-28.167h0.556c15.555 0 28.167 12.611 28.167 28.167v57.167h57.166c15.555 0 28.167 12.611 28.167 28.167v0.555c-0.001 15.555-12.613 28.166-28.168 28.166z" />
<glyph unicode="&#xe631;" d="M256 455.111c-125.681 0-227.555-101.874-227.555-227.555s101.875-227.555 227.555-227.555 227.555 101.875 227.555 227.555-101.875 227.555-227.555 227.555zM256 56.889c-94.111 0-170.667 76.555-170.667 170.667s76.555 170.666 170.667 170.666 170.667-76.555 170.667-170.666-76.555-170.667-170.667-170.667zM341.611 255.948h-103.334l37.459 36.792c11.027 11.138 11.027 29.166 0 40.306-11.027 11.125-28.889 11.125-39.916 0l-85.334-84.389c-5.292-5.347-8.264-12.583-8.264-20.153 0-0.326 0.012-0.65 0.024-0.974-0.012-0.325-0.024-0.648-0.024-0.974 0-7.57 2.972-14.805 8.264-20.153l85.334-84.389c11.028-11.125 28.889-11.125 39.916 0 11.027 11.139 11.027 29.166 0 40.306l-37.459 36.793h103.334c15.555 0 28.167 12.611 28.167 28.167v0.503c0 15.555-12.611 28.166-28.167 28.166z" />
<glyph unicode="&#xe632;" d="M483.555 227.556c0 125.681-101.875 227.555-227.555 227.555s-227.555-101.875-227.555-227.555c0-125.681 101.875-227.555 227.555-227.555s227.555 101.875 227.555 227.555zM85.334 227.556c0 94.111 76.556 170.667 170.666 170.667s170.667-76.555 170.667-170.667-76.555-170.667-170.667-170.667-170.667 76.555-170.667 170.667zM284.392 141.945v103.334l36.792-37.459c11.139-11.027 29.166-11.027 40.306 0 11.125 11.027 11.125 28.889 0 39.916l-84.389 85.334c-5.348 5.292-12.583 8.264-20.153 8.264-0.325 0-0.65-0.012-0.975-0.024-0.325 0.012-0.648 0.024-0.974 0.024-7.571 0-14.805-2.972-20.153-8.264l-84.389-85.334c-11.125-11.027-11.125-28.889 0-39.916 11.138-11.027 29.166-11.027 40.306 0l36.794 37.459v-103.334c0-15.555 12.612-28.167 28.167-28.167h0.503c15.555 0 28.166 12.611 28.166 28.167z" />
<glyph unicode="&#xe633;" d="M455.111 455.111h-398.222c-15.709 0-28.445-12.736-28.445-28.445v-398.222c0-15.709 12.736-28.445 28.445-28.445h398.222c15.709 0 28.445 12.736 28.445 28.445v398.222c0 15.709-12.736 28.445-28.445 28.445zM85.334 384c0 7.862 6.361 14.222 14.222 14.222h42.666v-56.889h-56.889v42.666zM426.666 71.111c0-7.861-6.361-14.222-14.222-14.222h-312.889c-7.862 0-14.222 6.361-14.222 14.222v213.334h341.334v-213.334zM426.666 341.334h-227.555v56.889h213.333c7.861 0 14.222-6.361 14.222-14.222v-42.667z" />
<glyph unicode="&#xe634;" d="M483.555 455.111h-284.445c-15.709 0-28.445-12.736-28.445-28.445v-85.333h-142.222c-15.709 0-28.445-12.736-28.445-28.445v-284.445c0-15.709 12.736-28.445 28.445-28.445h284.445c15.709 0 28.445 12.736 28.445 28.445v85.334h142.222c15.709 0 28.444 12.736 28.444 28.445v284.445c0 15.709-12.736 28.445-28.445 28.445zM284.445 71.111c0-7.847-6.361-14.222-14.222-14.222h-199.111c-7.861 0-14.222 6.375-14.222 14.222v199.111c0 7.862 6.361 14.222 14.222 14.222h199.111c7.861 0 14.222-6.361 14.222-14.222v-199.111zM455.111 184.889c0-7.847-6.361-14.222-14.222-14.222h-99.555v142.222c0 15.708-12.736 28.445-28.445 28.445h-85.334v42.666c0 7.861 6.361 14.222 14.222 14.222h199.111c7.861 0 14.222-6.361 14.222-14.222v-199.111z" />
<glyph unicode="&#xe635;" d="M369.778 426.667h-170.667c-109.972 0-199.111-89.138-199.111-199.111s89.138-199.111 199.111-199.111h170.667c109.972 0 199.111 89.139 199.111 199.111s-89.139 199.111-199.111 199.111zM369.778 85.334h-170.667c-78.417 0-142.222 63.805-142.222 142.222s63.805 142.222 142.222 142.222h170.667c78.417 0 142.222-63.805 142.222-142.222s-63.805-142.222-142.222-142.222zM284.445 227.556c0-47.125-38.208-85.334-85.334-85.334s-85.334 38.208-85.334 85.334 38.208 85.334 85.334 85.334 85.334-38.208 85.334-85.334z" horiz-adv-x="569" />
<glyph unicode="&#xe636;" d="M256 455.111c-141.388 0-256-114.611-256-256 0-15.709 12.736-28.445 28.445-28.445s28.445 12.736 28.445 28.445c0 109.792 89.319 199.111 199.111 199.111s199.111-89.319 199.111-199.111c0-15.709 12.736-28.445 28.445-28.445s28.445 12.736 28.445 28.445c0 141.389-114.611 256-256 256zM284.445 223.971v88.918c0 15.709-12.736 28.445-28.445 28.445s-28.445-12.736-28.445-28.445v-88.918c-49.070-12.632-85.334-57.181-85.334-110.193 0-62.834 50.944-113.778 113.778-113.778s113.778 50.944 113.778 113.778c0 53.012-36.263 97.561-85.334 110.193zM256 56.889c-31.361 0-56.889 25.514-56.889 56.889s25.528 56.889 56.889 56.889 56.889-25.514 56.889-56.889-25.528-56.889-56.889-56.889z" />
<glyph unicode="&#xe637;" d="M142.222 343.778l196.694-116.222-196.694-116.222v232.445zM113.778 426.667c-15.709 0-28.445-12.736-28.445-28.444v-341.334c0-15.709 12.736-28.445 28.445-28.445l300.639 177.652c7.583 4.486 12.25 12.639 12.25 21.459s-4.666 16.973-12.25 21.459l-300.639 177.653z" />
<glyph unicode="&#xe638;" d="M499.75 249.014l-300.639 177.652c-15.709 0-28.445-12.736-28.445-28.445v-55.592l-142.222 84.036c-15.709 0-28.445-12.736-28.445-28.444v-341.334c0-15.709 12.736-28.445 28.445-28.445l142.222 84.042v-55.597c0-15.709 12.736-28.445 28.445-28.445l300.639 177.652c7.598 4.486 12.25 12.639 12.25 21.459s-4.652 16.973-12.25 21.459zM170.667 178.57l-113.778-67.236v232.445l113.778-67.236v-97.972zM227.555 111.334v232.445l196.694-116.222-196.694-116.222z" />
<glyph unicode="&#xe639;" d="M483.555 426.667c-15.709 0-28.445-12.736-28.445-28.444v-122.831l-256 151.275c-15.709 0-28.445-12.736-28.445-28.445v-55.592l-142.222 84.036c-15.709 0-28.445-12.736-28.445-28.444v-341.334c0-15.709 12.736-28.445 28.445-28.445l142.222 84.042v-55.597c0-15.709 12.736-28.445 28.445-28.445l256 151.276v-122.831c0-15.709 12.736-28.445 28.445-28.445s28.445 12.736 28.445 28.445v341.334c0 15.709-12.736 28.445-28.445 28.445zM170.667 178.57l-113.778-67.236v232.445l113.778-67.236v-97.972zM227.555 111.334v232.445l196.694-116.222-196.694-116.222z" />
<glyph unicode="&#xe63a;" d="M227.937 85.174h-23.37c-67.456 11.032-119.102 69.777-119.102 140.346 0 23.648 6.071 45.767 16.326 65.387l17.438-24.176c12.699-17.589 40.085-12.685 45.907 8.226l33.055 118.879c4.599 16.507-7.823 32.859-24.954 32.832l-118.725-0.181c-21.091-0.028-33.278-23.926-20.939-41.043l32.095-44.476c-23.245-32.568-37.042-72.361-37.042-115.447 0-99.538 73-182.028 168.342-196.756 2.598-0.402 5.128-0.291 7.6 0.027v-0.346h23.37c15.506 0 28.066 12.561 28.066 28.081v0.57c0 15.506-12.561 28.079-28.066 28.079zM478.435 69.654l-32.109 44.476c23.259 32.569 37.042 72.361 37.042 115.447 0 99.538-72.986 182.029-168.328 196.77-2.599 0.402-5.128 0.291-7.601-0.042v0.362h-23.384c-15.493 0-28.053-12.574-28.053-28.080v-0.57c0-15.52 12.56-28.094 28.053-28.094h23.384c67.457-11.032 119.087-69.777 119.087-140.346 0-23.648-6.071-45.767-16.311-65.387l-17.452 24.176c-12.685 17.59-40.086 12.685-45.892-8.212l-33.068-118.878c-4.585-16.521 7.836-32.861 24.968-32.833l118.726 0.167c21.093 0.029 33.277 23.94 20.94 41.043z" />
<glyph unicode="&#xe63b;" d="M483.555 426.667h-455.111c-15.709 0-28.445-12.736-28.445-28.444v-341.334c0-15.709 12.736-28.445 28.445-28.445h455.111c15.709 0 28.445 12.736 28.445 28.445v341.334c0 15.709-12.736 28.445-28.445 28.445zM56.889 369.778h56.889v-56.889h-56.889v56.889zM56.889 256h56.889v-56.889h-56.889v56.889zM56.889 85.334v56.889h56.889v-56.889h-56.889zM170.667 85.334v284.445h170.667v-284.445h-170.667zM455.111 85.334h-56.889v56.889h56.889v-56.889zM455.111 199.111h-56.889v56.889h56.889v-56.889zM455.111 312.889h-56.889v56.889h56.889v-56.889z" />
<glyph unicode="&#xe63c;" d="M499.958 292.944l-222.361 156.959c-4.792 3.388-10.528 5.208-16.402 5.208h-10.389c-5.875 0-11.611-1.82-16.403-5.208l-222.361-156.959c-7.556-5.319-12.042-13.986-12.042-23.236v-241.264c0-15.709 12.736-28.445 28.445-28.445h455.111c15.709 0 28.445 12.736 28.445 28.445v241.264c0 9.25-4.486 17.916-12.042 23.236zM455.111 71.111c0-7.861-6.361-14.222-14.222-14.222h-213.333v156.445c0 7.861-6.361 14.222-14.222 14.222h-85.334c-7.862 0-14.222-6.361-14.222-14.222v-156.445h-42.666c-7.861 0-14.222 6.361-14.222 14.222v176.486c0 4.625 2.25 8.958 6.014 11.625l193.097 136.292 193.083-136.292c3.778-2.666 6.027-7 6.027-11.625v-176.486zM384 227.556h-85.334c-7.861 0-14.222-6.361-14.222-14.222v-28.445c0-7.861 6.361-14.222 14.222-14.222h85.334c7.861 0 14.222 6.361 14.222 14.222v28.445c0 7.861-6.361 14.222-14.222 14.222z" />
</font>
</defs>
</svg>
